Loading...
Error

(R'n'B, Hip-Hop) Бьянка - Про лето (2007) [APE (Image+.CUE), lossless]

Статистика раздачи
Размер:  303 MB   |    Зарегистрирован:  5 лет   |    Скачан:  1 раз

Полного источника не было: 1 год 5 месяцев

Сидов:  0  |  0 KB/s  ]   Личеров:  0  |  0 KB/s  ]

* - сиды/пиры с внешних источников

   
 
Автор Сообщение

Darkferse Пол:Жен

10-Июн-2017 12:04

Бьянка - Про лето

Жанр: R'n'B, Hip-Hop
Год выпуска: 2007
Источник: CD
Производитель: Sony BMG Music Entertainment - 88697159162
Аудиокодек: APE
Тип рипа: Image+.CUE
Битрейт: lossless
Продолжительность: 00:40:43

Треклист:

01. Про Лето (new) [00:02:36]
02. Космополитен [00:02:51]
03. Люблю [00:03:21]
04. Были Танцы [00:03:03]
05. Несчастливая Любовь [00:03:15]
06. Леха Клаб [00:03:12]
07. Навсегда [00:03:02]
08. Леха [00:03:08]
09. Позвони [00:03:08]
10. Облака [00:03:18]
11. Прости [00:03:12]
12. Успокойся Сердце [00:03:00]
13. Грибной Дождь [00:03:29]

Код:

Exact Audio Copy V0.99 prebeta 3 from 28. July 2007

Отчёт EAC об извлечении, выполненном 3. февраля 2009, 9:14

Бьянка / Про лето

Дисковод: _NEC    DVD_RW ND-3551A   Adapter: 0  ID: 0

Режим чтения                 : Достоверность
Использование точного потока : Да
Отключение кэша аудио        : Да
Использование указателей C2  : Нет

Коррекция смещения при чтении                 : 48
Способность читать области Lead-in и Lead-out : Нет
Заполнение пропущенных сэмплов тишиной        : Да
Удаление блоков с тишиной в начале и конце    : Нет
                                              : Да
Интерфейс                                     : Встроенный Win32-интерфейс для Win NT/2000

Выходной формат          : Monkey's Audio (без потерь)
Выбранный битрейт        : High Lossless Compression
Качество                 : Высокий
Добавление ID3-тэга      : Да
Утилита сжатия           : C:\Program Files\Audio Encoding Utils\CODECs\ape\MAC.exe

TOC извлечённого CD

     Трек |   Старт  | Длительность | Начальный сектор | Конечный сектор
    ---------------------------------------------------------------------
       1  |  0:00.00 |    2:36.74   |           0      |      11773
       2  |  2:36.74 |    2:51.59   |       11774      |      24657
       3  |  5:28.58 |    3:21.58   |       24658      |      39790
       4  |  8:50.41 |    3:03.66   |       39791      |      53581
       5  | 11:54.32 |    3:15.60   |       53582      |      68266
       6  | 15:10.17 |    3:12.64   |       68267      |      82730
       7  | 18:23.06 |    3:02.57   |       82731      |      96437
       8  | 21:25.63 |    3:08.64   |       96438      |     110601
       9  | 24:34.52 |    3:08.23   |      110602      |     124724
      10  | 27:43.00 |    3:18.70   |      124725      |     139644
      11  | 31:01.70 |    3:12.00   |      139645      |     154044
      12  | 34:13.70 |    3:00.16   |      154045      |     167560
      13  | 37:14.11 |    3:29.39   |      167561      |     183274
      14  | 43:15.50 |   26:27.65   |      194675      |     313764

Характеристики диапазона извлечения и сообщения об ошибках

Выбранный диапазон

     Имя файла C:\Temp\Бьянка - 2007 - Про Лето\Бьянка - Про лето.wav

     Пиковый уровень 100.0 %
     Качество диапазона 99.9 %
     CRC копии 22502AC3
     Копирование... OK

Ошибок не произошло

Конец отчёта

Код:

REM GENRE R&B
REM DATE 2007
REM DISCID B910570E
REM COMMENT "ExactAudioCopy v0.99pb3"
PERFORMER "Бьянка"
TITLE "Про лето"
FILE "Бьянка - Про лето.ape" WAVE
  TRACK 01 AUDIO
    TITLE "Про Лето (new)"
    PERFORMER "Бьянка"
    FLAGS DCP
    INDEX 01 00:00:00
  TRACK 02 AUDIO
    TITLE "Космополитен"
    PERFORMER "Бьянка"
    FLAGS DCP
    INDEX 01 02:36:74
  TRACK 03 AUDIO
    TITLE "Люблю"
    PERFORMER "Бьянка"
    FLAGS DCP
    INDEX 01 05:28:58
  TRACK 04 AUDIO
    TITLE "Были Танцы"
    PERFORMER "Бьянка"
    FLAGS DCP
    INDEX 01 08:50:41
  TRACK 05 AUDIO
    TITLE "Несчастливая Любовь"
    PERFORMER "Бьянка"
    FLAGS DCP
    INDEX 01 11:54:32
  TRACK 06 AUDIO
    TITLE "Леха Клаб"
    PERFORMER "Бьянка"
    FLAGS DCP
    INDEX 01 15:10:17
  TRACK 07 AUDIO
    TITLE "Навсегда"
    PERFORMER "Бьянка"
    FLAGS DCP
    INDEX 01 18:23:06
  TRACK 08 AUDIO
    TITLE "Леха"
    PERFORMER "Бьянка"
    FLAGS DCP
    INDEX 01 21:25:63
  TRACK 09 AUDIO
    TITLE "Позвони"
    PERFORMER "Бьянка"
    FLAGS DCP
    INDEX 01 24:34:52
  TRACK 10 AUDIO
    TITLE "Облака"
    PERFORMER "Бьянка"
    FLAGS DCP
    INDEX 01 27:43:00
  TRACK 11 AUDIO
    TITLE "Прости"
    PERFORMER "Бьянка"
    FLAGS DCP
    INDEX 01 31:01:70
  TRACK 12 AUDIO
    TITLE "Успокойся Сердце"
    PERFORMER "Бьянка"
    FLAGS DCP
    INDEX 01 34:13:70
  TRACK 13 AUDIO
    TITLE "Грибной Дождь"
    PERFORMER "Бьянка"
    FLAGS DCP
    INDEX 01 37:14:11

Этот торрент недоступен для скачивания без регистрации, однако доступен по публичной magnet-ссылке (источники с публичных трекеров). Перед использованием ссылки прочтите, пожалуйста Пользовательское соглашение, а также как можно дольше оставайтесь на раздаче! Для того, чтобы скачать сам торрент-файл (который видит больше источников), а также для того, чтобы поблагодарить релизера, вам необходимо зарегистрироваться. Если регистрироваться лень - вы можете также попробовать скачать релиз по нашим партнерским ссылкам ниже. Кроме того, зарегистрированным пользователям не показывается всплывающая реклама при скачивании.

[underverse.me].t83906.torrent
Трекер: Зарегистрирован   [ 10.06.2017 12:04 ]  
Статус: # сомнительно (by Бишеп at 10.06.2017 20:02)
Поблагодарили: пока никто не поблагодарил...
Тип торрента: публичный - доступные источники с открытых трекеров: 
Размер: 303 MB (занимает 0.07 DVDR, для записи нужно 1 болванка DVDR/RW)
 
 

Бишеп Пол:Муж

10-Июн-2017 20:12

Добавление ID3-тэга : Да и рип снят не в режиме теста/копии
Статус: сомнительно. Раздача будет поглощена при появлении нового рипа с правильными настройками EAC.
Диск с Bonus Video
14 | 43:15.50 | 26:27.65 | 194675 | 313764
Video 1 Про Лето
Video 2 Несчастливая Любовь
Video 3 Были Танцы

Яндекс.Метрика powered by Sphinx


В Н И М А Н И Е
Сайт не распространяет и не хранит электронные версии произведений, а лишь бесплатно и без коммерческой выгоды (не требуя взамен платы,
SMS и т.д.) предоставляет доступ к создаваемому пользователями каталогу ссылок на торрент-файлы, которые содержат только списки хеш-сумм.
Убедительная просьба с жалобами обращаться напрямую к пользователю, разместившему торрент файл.

Вверх