Loading...
Error

Миротворец / Peacemaker (Сезон: 1, серии: 1-8 из 8) (Джеймс Ганн) [2022, Фантастика, фэнтези, боевик, комедия, криминал, приключения, WEB-DL 1080p] 3 x MVO (LostFilm, HDrezka Studio) + Original + Sub (Rus, Eng)

Статистика раздачи
Размер:  23.75 GB   |    Зарегистрирован:  3 дня   |    Скачан:  6 раз
Сидов:  1  |  0 KB/s  ]   Личеров:  0  |  0 KB/s  ]

* - сиды/пиры с внешних источников

   
 
Автор Сообщение

cheloweck.dojdya Пол:Муж

13-Май-2022 22:35

Миротворец | Peacemaker
«Give Peace a F#cking Chance»
Производство: США
Год выпуска: 2022
Жанр: Фантастика, фэнтези, боевик, комедия, криминал, приключения
Продолжительность: ~ 00:37:00 серия
Перевод 1: Профессиональный (многоголосый закадровый) LostFilm
Перевод 2: Профессиональный (многоголосый закадровый) HDrezka Studio
Перевод 3: Профессиональный (многоголосый закадровый) HDrezka Studio 18+
Оригинальная дорожка: Английский
Субтитры: Русский, Английский

Премьера (мир): 13 января 2022

Режиссёр: Джеймс Ганн, Брэд Андерсон

В ролях: Джон Сина (John Cena), Даниэль Брукс (Danielle Brooks), Фредди Строма (Freddie Stroma), Чаквуди Ивуджи (Chukwudi Iwuji), Дженнифер Холлэнд (Jennifer Holland), Стив Эйджи (Steve Agee), Роберт Патрик (Robert Patrick), Локлин Манро (Lochlyn Munro), Элизабет Ладлоу (Elizabeth Faith Ludlow), Ризван Манжи (Rizwan Manji), Энни Чанг (Annie Chang), Нют Ле (Nhut Le)

Описание: Кристофера Смита (Джон Сина), более известного под псевдонимом Миротворец, подстрелили в шею, и на него упало здание. А еще Криса ждет горячий прием в тесной камере тюрьмы строгого режима Белль Рив, если он выживет, конечно. Но внезапно ему, зализавшему раны, дают просто уйти. Правда, ненадолго. Очень скоро его встречает новая команда аутсайдеров, попавших в тиски безжалостной Аманды Уоллер. Вцепившись в них, как бульдог в ляжку прохожего, она выдала очередному отряду под предводительством загадочного Клемсона Мёрна (Чаквуди Ивуджи) очередное суицидальное задание. Их цель — спящие агенты из засекреченного, а значит, опасного проекта «Бабочка». Чего хочет сам Миротворец, никого не волнует. Его отпускают только навестить папашу-реднека Огги (Роберт Патрик), недалекого и очень злобного неонациста, который не столько воспитывал, сколько травмировал сына. У него Крис забирает ультразвуковой шлем да своего единственного друга, милейшего орла Орлика, единственного, кто готов ради Миротворца и в бой, и в обнимашки. Будучи непроходимым тупицей, Смит за рекордное время вляпывается в неприятности. Ему даже не нужно разыскивать свою мишень — «бабочкой» оказывается девица из первого же бара. Кристофер едва уносит ноги и со скрипом понимает: не все в этом задании так уж прозрачно. А еще он впервые начинает сомневаться: может, крошить людей налево и направо — не лучший способ достижения мира?



Качество видео: WEB-DL 1080р
Формат: MKV
Видео: AVC, 1920 x 1080 (1.778) at 23.976 fps, ~8 250 kbps
Аудио Rus: AC-3, 48 kHz, 2 ch, 384 kbps |LostFilm|
Аудио Rus: AC-3, 48 kHz, 6 ch, 384 kbps |HDrezka Studio|
Аудио Rus: AC-3, 48 kHz, 6 ch, 384 kbps |HDrezka Studio| 18+
Аудио Eng: AC-3, 48 kHz, 6 ch, 384 kbps |Original|
Субтитры: Russian (Forced, full), English (full, SDH)
 
Общее
Уникальный идентификатор : 249704217276900054999638859595660373977 (0xBBDB486E0E9480EECA89C0EE6DABAFD9)
Полное имя : E:\_Сериалы\_Сериалы\Миротворец\Peacemaker.S01.WEBDL.1080p.Rus.Eng\Peacemaker.S01E01.WEBDL.1080p.RGzsRutracker.mkv
Формат : Matroska
Версия формата : Version 4
Размер файла : 3,19 Гбайт
Продолжительность : 46 м. 40 с.
Режим общего битрейта : Переменный
Общий поток : 9 774 Кбит/сек
Дата кодирования : UTC 2022-01-22 20:37:41
Программа кодирования : mkvmerge v64.0.0 ('Willows') 64-bit
Библиотека кодирования : libebml v1.4.2 + libmatroska v1.6.4

Видео
Идентификатор : 1
Формат : AVC
Формат/Информация : Advanced Video Codec
Профиль формата : [email protected]
Настройки формата : CABAC / 4 Ref Frames
Параметр CABAC формата : Да
Параметр RefFrames формата : 4 кадра
Идентификатор кодека : V_MPEG4/ISO/AVC
Продолжительность : 46 м. 40 с.
Вид битрейта : Переменный
Битрейт : 8 250 Кбит/сек
Максимальный битрейт : 12,4 Мбит/сек
Ширина : 1 920 пикселей
Высота : 1 080 пикселей
Соотношение сторон : 16:9
Режим частоты кадров : Постоянный
Частота кадров : 23,976 (24000/1001) кадра/сек
Цветовое пространство : YUV
Субдискретизация насыщенности : 4:2:0
Битовая глубина : 8 бит
Тип развёртки : Прогрессивная
Бит/(Пиксели*Кадры) : 0.166
Размер потока : 2,68 Гбайт (84%)
Библиотека кодирования : x264 core 157 r2965 861cec4
Настройки программы : cabac=1 / ref=4 / deblock=1:0:0 / analyse=0x3:0x113 / me=hex / subme=7 / psy=1 / psy_rd=1.00:0.00 / mixed_ref=1 / me_range=16 / chroma_me=1 / trellis=1 / 8x8dct=1 / cqm=0 / deadzone=21,11 / fast_pskip=1 / chroma_qp_offset=-2 / threads=34 / lookahead_threads=5 / sliced_threads=0 / nr=0 / decimate=1 / interlaced=0 / bluray_compat=0 / constrained_intra=0 / bframes=3 / b_pyramid=2 / b_adapt=1 / b_bias=0 / direct=1 / weightb=1 / open_gop=0 / weightp=2 / keyint=96 / keyint_min=96 / scenecut=40 / intra_refresh=0 / rc_lookahead=40 / rc=2pass / mbtree=1 / bitrate=8250 / ratetol=1.0 / qcomp=0.60 / qpmin=0 / qpmax=69 / qpstep=4 / cplxblur=20.0 / qblur=0.5 / vbv_maxrate=12375 / vbv_bufsize=6187 / nal_hrd=vbr / filler=0 / ip_ratio=1.40 / aq=1:1.00
Язык : English
Default : Да
Forced : Нет
Цветовой диапазон : Limited
Основные цвета : BT.709
Характеристики трансфера : BT.709
Коэффициенты матрицы : BT.709

Аудио #1
Идентификатор : 2
Формат : AC-3
Формат/Информация : Audio Coding 3
Коммерческое название : Dolby Digital
Идентификатор кодека : A_AC3
Продолжительность : 46 м. 40 с.
Вид битрейта : Постоянный
Битрейт : 384 Кбит/сек
Каналы : 2 канала
Channel layout : L R
Частота : 48,0 КГц
Частота кадров : 31,250 кадров/сек (1536 SPF)
Метод сжатия : С потерями
Размер потока : 128 Мбайт (4%)
Заголовок : LF
Язык : Russian
Service kind : Complete Main
Default : Да
Forced : Нет

Аудио #2
Идентификатор : 3
Формат : AC-3
Формат/Информация : Audio Coding 3
Коммерческое название : Dolby Digital
Идентификатор кодека : A_AC3
Продолжительность : 46 м. 40 с.
Вид битрейта : Постоянный
Битрейт : 384 Кбит/сек
Каналы : 6 каналов
Channel layout : L R C LFE Ls Rs
Частота : 48,0 КГц
Частота кадров : 31,250 кадров/сек (1536 SPF)
Метод сжатия : С потерями
Размер потока : 128 Мбайт (4%)
Заголовок : HDr
Язык : Russian
Service kind : Complete Main
Default : Нет
Forced : Нет

Аудио #3
Идентификатор : 4
Формат : AC-3
Формат/Информация : Audio Coding 3
Коммерческое название : Dolby Digital
Идентификатор кодека : A_AC3
Продолжительность : 46 м. 40 с.
Вид битрейта : Постоянный
Битрейт : 384 Кбит/сек
Каналы : 6 каналов
Channel layout : L R C LFE Ls Rs
Частота : 48,0 КГц
Частота кадров : 31,250 кадров/сек (1536 SPF)
Метод сжатия : С потерями
Размер потока : 128 Мбайт (4%)
Заголовок : HDr 18+
Язык : Russian
Service kind : Complete Main
Default : Нет
Forced : Нет

Аудио #4
Идентификатор : 5
Формат : AC-3
Формат/Информация : Audio Coding 3
Коммерческое название : Dolby Digital
Идентификатор кодека : A_AC3
Продолжительность : 46 м. 40 с.
Вид битрейта : Постоянный
Битрейт : 384 Кбит/сек
Каналы : 6 каналов
Channel layout : L R C LFE Ls Rs
Частота : 48,0 КГц
Частота кадров : 31,250 кадров/сек (1536 SPF)
Метод сжатия : С потерями
Размер потока : 128 Мбайт (4%)
Заголовок : Eng
Язык : English
Service kind : Complete Main
Default : Нет
Forced : Нет

Текст #1
Идентификатор : 6
Формат : UTF-8
Идентификатор кодека : S_TEXT/UTF8
Идентификатор кодека/Информация : UTF-8 Plain Text
Продолжительность : 46 м. 8 с.
Битрейт : 13 бит/сек
Count of elements : 75
Размер потока : 4,47 Кбайт (0%)
Заголовок : Forc
Язык : Russian
Default : Да
Forced : Нет

Текст #2
Идентификатор : 7
Формат : UTF-8
Идентификатор кодека : S_TEXT/UTF8
Идентификатор кодека/Информация : UTF-8 Plain Text
Продолжительность : 46 м. 21 с.
Битрейт : 97 бит/сек
Count of elements : 636
Размер потока : 33,2 Кбайт (0%)
Заголовок : Rus
Язык : Russian
Default : Нет
Forced : Нет

Текст #3
Идентификатор : 8
Формат : UTF-8
Идентификатор кодека : S_TEXT/UTF8
Идентификатор кодека/Информация : UTF-8 Plain Text
Продолжительность : 46 м. 21 с.
Битрейт : 86 бит/сек
Count of elements : 809
Размер потока : 29,4 Кбайт (0%)
Заголовок : Eng
Язык : English
Default : Нет
Forced : Нет

Текст #4
Идентификатор : 9
Формат : UTF-8
Идентификатор кодека : S_TEXT/UTF8
Идентификатор кодека/Информация : UTF-8 Plain Text
Продолжительность : 46 м. 21 с.
Битрейт : 102 бит/сек
Count of elements : 940
Размер потока : 34,9 Кбайт (0%)
Заголовок : SDH
Язык : English
Default : Нет
Forced : Нет

Меню
00:00:00.000 : en:Chapter 1
00:06:11.288 : en:Intro
00:07:34.705 : en:Chapter 2
00:10:06.188 : en:Chapter 3
00:20:14.630 : en:Chapter 4
00:29:29.017 : en:Chapter 5
00:46:36.000 : en:Credits





Этот торрент недоступен для скачивания без регистрации, однако доступен по публичной magnet-ссылке (источники с публичных трекеров). Перед использованием ссылки прочтите, пожалуйста Пользовательское соглашение, а также как можно дольше оставайтесь на раздаче! Для того, чтобы скачать сам торрент-файл (который видит больше источников), а также для того, чтобы поблагодарить релизера, вам необходимо зарегистрироваться. Если регистрироваться лень - вы можете также попробовать скачать релиз по нашим партнерским ссылкам ниже. Кроме того, зарегистрированным пользователям не показывается всплывающая реклама при скачивании.

[underver.se].t241732.torrent
Трекер: Зарегистрирован   [ 13.05.2022 22:35 ]  
Статус: проверено (by Robbertta at 14.05.2022 05:15)
Поблагодарили: пока никто не поблагодарил...
Тип торрента: публичный - доступные источники с открытых трекеров: 
Размер: 23.75 GB (занимает 5.42 DVDR, для записи нужно 6 болванок DVDR/RW)
 
 

Яндекс.Метрика powered by Sphinx


В Н И М А Н И Е
Сайт не распространяет и не хранит электронные версии произведений, а лишь бесплатно и без коммерческой выгоды (не требуя взамен платы,
SMS и т.д.) предоставляет доступ к создаваемому пользователями каталогу ссылок на торрент-файлы, которые содержат только списки хеш-сумм.
Убедительная просьба с жалобами обращаться напрямую к пользователю, разместившему торрент файл.

Вверх