Loading...
Error

Москва. Центральный округ-4 (серии: 1-18 из 18) (Максим Субботин, Игорь Кечаев) [2014, Детектив, HDTVRip]

Статистика раздачи
Размер:  9.67 GB   |    Зарегистрирован:  14 дней   |    Скачан:  1 раз

Полного источника не было: 4 дня

Сидов:  0  |  0 KB/s  ]   Личеров:  0  |  0 KB/s  ]

* - сиды/пиры с внешних источников

   
 
Автор Сообщение

cheloweck.dojdya Пол:Муж

13-Май-2022 22:03

Москва. Центральный округ - 4


Год выпуска: 2014
Производство: Россия, Телекомпания НТВ
Жанр: Детектив
Продолжительность: 00:45:00
Субтитры: нет

Режиссер: Максим Субботин, Игорь Кечаев

В ролях: Владимир Меньшов, Сергей Горобченко, Алексей Колган, Анна Пескова, Амаду Мамадаков, Макс Бирюков, Пётр Томашевский, Александра Тюфтей, Дарья Фекленко, Серафима Низовская, Анатолий Хропов, Юлия Полынская, Фёдор Румянцев, Илья Щербинин, Анна Леванова, Артём Кобзев, Велимир Русаков, Сергей Коваленко, Ксения Иванова, Дмитрий Янышевский, Игорь Трошин, Валентин Самохин, Ольга Котельникова, Сергей Рублёв, Никита Тарасов, Антон Фёдоров, Анна Карышева, Владимир Царулков, Юлия Юрченко, Кристина Завьялова, Михаил Скачков

Описание: Главная нить сюжета детективного сериала «Москва. Центральный округ» — противостояние представителей двух поколений: молодого амбициозного сыщика и майора, настоящего сыскного волка. Главный герой, молодой сыщик Репейников, внук легендарного полковника милиции, должен был ехать во Францию для прохождения службы в Интерполе. Но в последний момент в Интерпол направили кого-то другого, и молодой лейтенант попал на службу в Управление внутренних дел по Центральному округу столицы…

Качество: HDTVRip
Формат: AVI
Видео: 720x400 (1.80:1), 25 fps, XviD build 73 ~1520 kbps avg, 0.21 bit/pixel
Аудио: 48 kHz, AC3 Dolby Digital, 2/0 (L,R) ch, ~192 kbps
General
Complete name : X:\раздачи\Москва. Центральный округ-4 (2015).HDTVRip.RG.Russkie.serialy.&.Files-x\01.Москва. Центральный округ-4 (2015).HDTVRip.RG.Russkie.serialy.&.Files-x.avi
Format : AVI
Format/Info : Audio Video Interleave
File size : 550 MiB
Duration : 44mn 32s
Overall bit rate : 1 726 Kbps
Writing application : VirtualDubMod 1.5.10.3 | www.virtualdub-fr.org || (build 2550/release)
Writing library : VirtualDubMod build 2550/release

Video
ID : 0
Format : MPEG-4 Visual
Format profile : Advanced [email protected]
Format settings, BVOP : 1
Format settings, QPel : No
Format settings, GMC : No warppoints
Format settings, Matrix : Custom
Codec ID : XVID
Codec ID/Hint : XviD
Duration : 44mn 32s
Bit rate : 1 524 Kbps
Width : 720 pixels
Height : 400 pixels
Display aspect ratio : 16:9
Frame rate : 25.000 fps
Color space : YUV
Chroma subsampling : 4:2:0
Bit depth : 8 bits
Scan type : Progressive
Compression mode : Lossy
Bits/(Pixel*Frame) : 0.212
Stream size : 486 MiB (88%)
Writing library : XviD 73

Audio
ID : 1
Format : AC-3
Format/Info : Audio Coding 3
Mode extension : CM (complete main)
Format settings, Endianness : Big
Codec ID : 2000
Duration : 44mn 32s
Bit rate mode : Constant
Bit rate : 192 Kbps
Channel(s) : 2 channels
Channel positions : Front: L R
Sampling rate : 48.0 KHz
Frame rate : 31.250 fps (1536 spf)
Compression mode : Lossy
Stream size : 61.2 MiB (11%)
Alignment : Split accross interleaves
Interleave, duration : 40 ms (1.00 video frame)
Interleave, preload duration : 500 ms




Этот торрент недоступен для скачивания без регистрации, однако доступен по публичной magnet-ссылке (источники с публичных трекеров). Перед использованием ссылки прочтите, пожалуйста Пользовательское соглашение, а также как можно дольше оставайтесь на раздаче! Для того, чтобы скачать сам торрент-файл (который видит больше источников), а также для того, чтобы поблагодарить релизера, вам необходимо зарегистрироваться. Если регистрироваться лень - вы можете также попробовать скачать релиз по нашим партнерским ссылкам ниже. Кроме того, зарегистрированным пользователям не показывается всплывающая реклама при скачивании.

[underver.se].t241730.torrent
Трекер: Зарегистрирован   [ 13.05.2022 22:03 ]  
Статус: проверено (by Robbertta at 14.05.2022 05:18)
Поблагодарили: пока никто не поблагодарил...
Тип торрента: публичный - доступные источники с открытых трекеров: 
Размер: 9.67 GB (занимает 2.21 DVDR, для записи нужно 3 болванки DVDR/RW)
 
 

Яндекс.Метрика powered by Sphinx


В Н И М А Н И Е
Сайт не распространяет и не хранит электронные версии произведений, а лишь бесплатно и без коммерческой выгоды (не требуя взамен платы,
SMS и т.д.) предоставляет доступ к создаваемому пользователями каталогу ссылок на торрент-файлы, которые содержат только списки хеш-сумм.
Убедительная просьба с жалобами обращаться напрямую к пользователю, разместившему торрент файл.

Вверх