Loading...
Error

Москва. Центральный округ-2 (серии: 1-8 из 8) (Владимир Щегольков) [2004, Остросюжетный детектив, DVDRip]

Статистика раздачи
Размер:  2.93 GB   |    Зарегистрирован:  3 дня   |    Скачан:  1 раз

Полного источника не было: 1 день 1 час

Сидов:  0  |  0 KB/s  ]   Личеров:  0  |  0 KB/s  ]

* - сиды/пиры с внешних источников

   
 
Автор Сообщение

cheloweck.dojdya Пол:Муж

13-Май-2022 21:54

Москва. Центральный округ-2


Год выпуска: 2004
Жанр: Остросюжетный детектив
Продолжительность: 8 x ~ 00:47:38

Режиссер: Владимир Щегольков

В ролях: Владимир Меньшов, Сергей Горобченко, Алексей Колган, Амаду Мамадаков, Михаил Бескоровайный

Описание: Продолжение захватывающего многосерийного детектива. Главный герой, молодой сыщик Репейников, внук легендарного полковника милиции, попадает на службу в Управление внутренних дел по Центральному округу столицы. И начинаются трудовые будни… В центре Москвы творятся страшные дела. То на территории бывшего завода находят обезглавленные трупы, то по чьему-то злому умыслу гибнет парашютистка, спортсменка, красавица, то фашисты, бандиты, а может даже, агенты ФБР убивают диггера, составлявшего подробную карту подземной Москвы. Разобраться во всей этой криминальной московской кутерьме команде опытного сыщика Брагина помогают спецслужбы и ФСБ.

Качество: DVDRip
Формат: AVI
Видео кодек: XviD
Аудио кодек: MPEG Audio
Видео: XVID 720x400 25.00 fps 927 kbps
Аудио: МPEG Audio Layer 3, 48000 kHz stereo 192 kbps

Код:

Общее
Полное имя                               : C:\otkat\Видео\Москва центральный округ\Moskva.Centralnyj.okrug.2.(8.serij.iz.8).2004.XviD.DVDRip\Moskva.Centralnyj.okrug.2.ser.1.avi
Формат                                   : AVI
Формат/Информация                        : Audio Video Interleave
Размер файла                             : 385 Мбайт
Продолжительность                        : 47 м.
Общий поток                              : 1129 Кбит/сек
Программа кодирования                    : VirtualDubMod 1.5.4.1 (build 2178/release)
Библиотека кодирования                   : VirtualDubMod build 2178/release

Видео
Идентификатор                            : 0
Формат                                   : MPEG-4 Visual
Профиль формата                          : Advanced [email protected]
Параметр BVOP формата                    : 1
Параметр QPel формата                    : Нет
Параметр GMC формата                     : Без точки перехода
Параметр матрицы формата                 : Выборочная
Идентификатор кодека                     : XVID
Идентификатор кодека/Подсказка           : XviD
Продолжительность                        : 47 м.
Битрейт                                  : 927 Кбит/сек
Ширина                                   : 720 пикселей
Высота                                   : 400 пикселей
Соотношение сторон                       : 16:9
Частота кадров                           : 25,000 кадров/сек
Цветовое пространство                    : YUV
Субдискретизация насыщенности            : 4:2:0
Битовая глубина                          : 8 бит
Тип развёртки                            : Прогрессивная
Метод сжатия                             : С потерями
Бит/(Пиксели*Кадры)                      : 0.129
Размер потока                            : 316 Мбайт (82%)
Библиотека кодирования                   : XviD 1.2.0.dev47 (UTC 2006-11-01)

Аудио
Идентификатор                            : 1
Формат                                   : MPEG Audio
Версия формата                           : Version 1
Профиль формата                          : Layer 3
Режим                                    : Joint stereo
Идентификатор кодека                     : 55
Идентификатор кодека/Подсказка           : MP3
Продолжительность                        : 47 м.
Вид битрейта                             : Постоянный
Битрейт                                  : 192 Кбит/сек
Каналы                                   : 2 канала
Частота                                  : 48,0 КГц
Метод сжатия                             : С потерями
Размер потока                            : 65,4 Мбайт (17%)
Выравнивание                             : Соединение по промежуткам
Продолжительность промежутка             : 40  мс. (1,00 видеокадр)
Время предзагрузки промежутка            : 504  мс.
Библиотека кодирования                   : LAME3.97
Настройки программы                      : -m j -V 4 -q 2 -lowpass 18.6 -b 192
Язык                                     : English




Этот торрент недоступен для скачивания без регистрации, однако доступен по публичной magnet-ссылке (источники с публичных трекеров). Перед использованием ссылки прочтите, пожалуйста Пользовательское соглашение, а также как можно дольше оставайтесь на раздаче! Для того, чтобы скачать сам торрент-файл (который видит больше источников), а также для того, чтобы поблагодарить релизера, вам необходимо зарегистрироваться. Если регистрироваться лень - вы можете также попробовать скачать релиз по нашим партнерским ссылкам ниже. Кроме того, зарегистрированным пользователям не показывается всплывающая реклама при скачивании.

[underver.se].t241729.torrent
Трекер: Зарегистрирован   [ 13.05.2022 21:54 ]  
Статус: проверено (by Robbertta at 14.05.2022 05:19)
Поблагодарили: пока никто не поблагодарил...
Тип торрента: публичный - доступные источники с открытых трекеров: 
Размер: 2.93 GB (занимает 0.67 DVDR, для записи нужно 1 болванка DVDR/RW)
 
 

Яндекс.Метрика powered by Sphinx


В Н И М А Н И Е
Сайт не распространяет и не хранит электронные версии произведений, а лишь бесплатно и без коммерческой выгоды (не требуя взамен платы,
SMS и т.д.) предоставляет доступ к создаваемому пользователями каталогу ссылок на торрент-файлы, которые содержат только списки хеш-сумм.
Убедительная просьба с жалобами обращаться напрямую к пользователю, разместившему торрент файл.

Вверх